最近看过此主题的会员

查看: 284|回复: 1
打印 上一主题 下一主题

[欧美] ropuros原抓:德+孟死亡 Khnvm《Foretold Monuments of Flesh》2019/FLAC/BD

[复制链接]
 成长值: 32880

1万

主题

2万

帖子

76万

积分

音乐掌门人

Rank: 20Rank: 20Rank: 20Rank: 20Rank: 20

积分
763932

名人勋章社区QQ达人分享勋章精华帖达人灌水勋章

跳转到指定楼层
1#
发表于 2019-5-18 20:27:12 | 只看该作者 |只看大图 回帖奖励 |倒序浏览 |阅读模式

注册会员,获得无损资源下载地址,享受高品质音乐。

您需要 登录 才可以下载或查看,没有帐号?注册

x



Khnvm
Country of origin:International
Location:Germany/Bangladesh
Status:Active
Formed in:N/A
Genre:Death Metal
Lyrical themes:N/A
Current label:Testimony Records
Years active:N/A

乐队成员来自德国和孟加拉:

Krzysztof Klingbein        Drums
See also: Aggressor, Resurrection, Thunderwar, ex-Hate (live), ex-Klaszcz?ce Pierogi (live)
Obliterator        Guitars, Bass, Vocals
See also: Homicide, Nekrohowl


================================



01. Foretold Monuments Of Flesh
02. Invocato Deo Plaga
03. Heathen Beast
04. Sic Mundus Creatus Est
05. Profaning The Ancient Rites
06. Gutted To The Bone
07. Kabbalah Of Darkness

============================
百度下载(最终的金属仓库)
游客,如果您要查看本帖隐藏内容请回复




Metalymetal原抓:加前卫氛围 Devin Townsend《Empath》2019/2CD/FLAC/BD
原抓:夜叉乐队《我即是》2019/WAV_整轨/度盘

本人发布的资源,有密码的话都是:秒速赛车单双 www.zdqr0.cn
关于链接失效的说明(度盘好友分享的说明)
//www.zdqr0.cn/thread-117499-1-1.html     
紧急通告:115,快传等网盘取消了分享功能礼包码链接全部失效
//www.zdqr0.cn/thread-122759-1-1.html
 成长值: 32880

1万

主题

2万

帖子

76万

积分

音乐掌门人

Rank: 20Rank: 20Rank: 20Rank: 20Rank: 20

积分
763932

名人勋章社区QQ达人分享勋章精华帖达人灌水勋章

2#
发表于 2019-5-18 20:29:04 | 只看该作者
Exact Audio Copy V1.3 from 2. September 2016

EAC extraction logfile from 20. April 2019, 1:35

KHNVM / Foretold Monuments Of Flesh

Used drive  : HL-DT-STDVDRAM GUE1N   Adapter: 1  ID: 0

Read mode               : Secure
Utilize accurate stream : Yes
Defeat audio cache      : Yes
Make use of C2 pointers : No

Read offset correction                      : 6
Overread into Lead-In and Lead-Out          : No
Fill up missing offset samples with silence : Yes
Delete leading and trailing silent blocks   : No
Null samples used in CRC calculations       : Yes
Used interface                              : Native Win32 interface for Win NT & 2000

Used output format              : User Defined Encoder
Selected bitrate                : 1024 kBit/s
Quality                         : High
Add ID3 tag                     : No
Command line compressor         : C:\Program Files (x86)\Exact Audio Copy\flac.exe
Additional command line options : -6 -V %source%


TOC of the extracted CD

     Track |   Start  |  Length  | Start sector | End sector
    ---------------------------------------------------------
        1  |  0:00.00 |  3:57.18 |         0    |    17792   
        2  |  3:57.18 |  3:33.42 |     17793    |    33809   
        3  |  7:30.60 |  4:42.09 |     33810    |    54968   
        4  | 12:12.69 |  3:33.12 |     54969    |    70955   
        5  | 15:46.06 |  3:36.35 |     70956    |    87190   
        6  | 19:22.41 |  4:19.14 |     87191    |   106629   
        7  | 23:41.55 |  4:51.01 |    106630    |   128455   


Range status and errors

Selected range

     Filename D:\_MMT\KHNVM [2019] [CD] Foretold Monuments Of Flesh [EAC-FLAC] by ropuros [MeTaLMaDNeSS.TeaM]\KHNVM-Foretold Monuments Of Flesh (2019).wav

     Peak level 98.5 %
     Extraction speed 1.6 X
     Range quality 100.0 %
     Copy CRC F7016BFB
     Copy OK

No errors occurred


AccurateRip summary

Track  1  not present in database
Track  2  not present in database
Track  3  not present in database
Track  4  not present in database
Track  5  not present in database
Track  6  not present in database
Track  7  not present in database

None of the tracks are present in the AccurateRip database

End of status report

---- CUETools DB Plugin V2.1.6

[CTDB TOCID: JHgOR0CrNGct3jUUy3101wYblbc-] found
Submit result: JHgOR0CrNGct3jUUy3101wYblbc- has been confirmed
Track | CTDB Status
  1   | (1/1) Accurately ripped
  2   | (1/1) Accurately ripped
  3   | (1/1) Accurately ripped
  4   | (1/1) Accurately ripped
  5   | (1/1) Accurately ripped
  6   | (1/1) Accurately ripped
  7   | (1/1) Accurately ripped


==== Log checksum F09438C421A5DEDEC68366772A477D826CE2EAC925851D7564C2D51BF9BE96E7 ====



本人发布的资源,有密码的话都是:秒速赛车单双 www.zdqr0.cn
关于链接失效的说明(度盘好友分享的说明)
//www.zdqr0.cn/thread-117499-1-1.html     
紧急通告:115,快传等网盘取消了分享功能礼包码链接全部失效
//www.zdqr0.cn/thread-122759-1-1.html
您需要登录后才可以回帖 登录 | 注册

本版积分规则

快速回复 秒速赛车单双 返回列表
  • 王晓秋苦练内功 荣威把每做一台车都当成一场考试 2019-06-24
  • 月子中心怎么成了野蛮生长的“熊孩子” 2019-06-24
  • “男童在幼儿园噎食死亡”,信息渠道应当畅通无阻 2019-06-23
  • 长治职业技术学院“学习新思想千万师生同上一堂课活动”首场授课开讲 2019-06-23
  • 儿子变全能暖男 海清晒儿子手工包礼物爱意满满 2019-06-23
  • 子曰:“朽木不可雕也,粪土之墙不可圬也!于予与何诛?”[哈哈] 2019-06-23
  • 张涵予蓝盈莹主演《逆光》首曝角色海报 2019-06-22
  • 鲜琦:感恩父亲节,永远难忘父亲这首歌(4) 2019-06-22
  • 【坚决打赢脱贫攻坚战】“千企帮千村”共筑幸福路 2019-06-21
  • 人民观点:锻造专业精进的“金刚钻” 2019-06-20
  • 回复@看着就想笑:同时,市场不具有配置全局性长期性战略性资源的功能。 2019-06-20
  • 天津市侨商会完成换届选举工作 2019-06-19
  • 销量持续低迷 路虎即将停产揽胜极光双门轿跑版 2019-06-19
  • 秒变迷弟!吴建豪晒与甄子丹合影:偶像给我签名 2019-06-19
  • 2013环球企业领袖宁夏圆桌会议嘉宾云集 2019-06-19
  • 官方五分彩软件 甘肃快三和值为走势图 从来没中过奖的号码 河南11选5历史 福建22选5开奖结果查询 中国福彩网积分活动 福彩3d试机号分析17500 陕西11选5开奖结果++爱彩乐 3d福彩中奖号码 十一运夺金停售 福彩东方6十1怎么玩 二肖中特提前公开验证会员资料 内蒙古11选5预测号 什么叫组三组六 自动麻将桌品牌