最近看过此主题的会员

查看: 190|回复: 2
打印 上一主题 下一主题

[欧美] Metalymetal原抓:加前卫氛围 Devin Townsend《Empath》2019/2CD/FLAC/BD

[复制链接]
 成长值: 32880

1万

主题

2万

帖子

76万

积分

音乐掌门人

Rank: 20Rank: 20Rank: 20Rank: 20Rank: 20

积分
763932

名人勋章社区QQ达人分享勋章精华帖达人灌水勋章

跳转到指定楼层
1#
发表于 2019-5-18 20:16:59 | 只看该作者 |只看大图 回帖奖励 |倒序浏览 |阅读模式

注册会员,获得无损资源下载地址,享受高品质音乐。

您需要 登录 才可以下载或查看,没有帐号?注册

x




Devin Townsend
Country of origin:Canada
Location:Vancouver, British Columbia
Status:Active
Formed in:1997
Genre:Progressive Metal, Ambient
Lyrical themes:Life
Current label:HevyDevy Records
Years active:1997-present

================================


CD1:
1. Castaway 02:30
2. Genesis 06:05
3. Spirits Will Collide 04:39
4. Evermore 05:30
5. Sprite 06:37
6. Hear Me 06:30
7. Why 04:59
8. Borderlands 11:02
9. Requiem 02:46 instrumental
10. Singularity (Part 1: Adrift) 04:59
11. Singularity (Part 2: I Am I) 03:29
12. Singularity (Part 3: There Be Monsters) 04:37
13. Singularity (Part 4: Curious Gods) 03:08
14. Singularity (Part 5: Silicon Scientists) 02:55
15. Singularity (Part 6: Here Comes the Sun) 04:22

CD2:
1. The Contrarian (Demo) 05:43
2. King (Demo) 05:29
3. The Waiting Kind (Demo) 03:54
4. Empath (Demo) 05:11
5. Methuselah (Demo) 04:07
6. This Is Your Life (Demo) 04:15
7. Gulag (Demo) 05:38
8. Middle Aged Man 03:25
9. Total Collapse (Demo) 05:41
10. Summer (Demo) 06:15

===========================




BACKLASH原抓:美后金自赏 Astronoid《Astronoid》2019/FLAC/BD
ropuros原抓:德+孟死亡 Khnvm《Foretold Monuments of Flesh》2019/FLAC/BD

本人发布的资源,有密码的话都是:秒速赛车单双 www.zdqr0.cn
关于链接失效的说明(度盘好友分享的说明)
//www.zdqr0.cn/thread-117499-1-1.html     
紧急通告:115,快传等网盘取消了分享功能礼包码链接全部失效
//www.zdqr0.cn/thread-122759-1-1.html
 成长值: 32880

1万

主题

2万

帖子

76万

积分

音乐掌门人

Rank: 20Rank: 20Rank: 20Rank: 20Rank: 20

积分
763932

名人勋章社区QQ达人分享勋章精华帖达人灌水勋章

2#
发表于 2019-5-18 20:18:30 | 只看该作者















==========================================

百度下载(最终的金属仓库)

游客,如果您要查看本帖隐藏内容请回复



本人发布的资源,有密码的话都是:秒速赛车单双 www.zdqr0.cn
关于链接失效的说明(度盘好友分享的说明)
//www.zdqr0.cn/thread-117499-1-1.html     
紧急通告:115,快传等网盘取消了分享功能礼包码链接全部失效
//www.zdqr0.cn/thread-122759-1-1.html
 成长值: 32880

1万

主题

2万

帖子

76万

积分

音乐掌门人

Rank: 20Rank: 20Rank: 20Rank: 20Rank: 20

积分
763932

名人勋章社区QQ达人分享勋章精华帖达人灌水勋章

3#
发表于 2019-5-18 20:19:32 | 只看该作者
Exact Audio Copy V1.3 from 2. September 2016

EAC extraction logfile from 4. April 2019, 17:58

DEVIN TOWNSEND / Empath CD1

Used drive  : HL-DT-STDVDRAM GSA-4163B   Adapter: 1  ID: 0

Read mode               : Secure
Utilize accurate stream : Yes
Defeat audio cache      : Yes
Make use of C2 pointers : No

Read offset correction                      : 667
Overread into Lead-In and Lead-Out          : No
Fill up missing offset samples with silence : Yes
Delete leading and trailing silent blocks   : No
Null samples used in CRC calculations       : Yes
Used interface                              : Native Win32 interface for Win NT & 2000

Used output format              : User Defined Encoder
Selected bitrate                : 1024 kBit/s
Quality                         : High
Add ID3 tag                     : Yes
Command line compressor         : C:\Archivos de programa\Exact Audio Copy\wavpack.exe
Additional command line options : -h -m -d %source%


TOC of the extracted CD

     Track |   Start  |  Length  | Start sector | End sector
    ---------------------------------------------------------
        1  |  0:00.00 |  2:28.42 |         0    |    11141   
        2  |  2:28.42 |  6:05.64 |     11142    |    38580   
        3  |  8:34.31 |  4:39.69 |     38581    |    59574   
        4  | 13:14.25 |  5:30.32 |     59575    |    84356   
        5  | 18:44.57 |  6:37.23 |     84357    |   114154   
        6  | 25:22.05 |  6:30.21 |    114155    |   143425   
        7  | 31:52.26 |  4:59.14 |    143426    |   165864   
        8  | 36:51.40 | 11:02.59 |    165865    |   215573   
        9  | 47:54.24 |  2:46.59 |    215574    |   228082   
       10  | 50:41.08 |  4:59.66 |    228083    |   250573   
       11  | 55:40.74 |  3:29.08 |    250574    |   266256   
       12  | 59:10.07 |  4:37.17 |    266257    |   287048   
       13  | 63:47.24 |  3:08.30 |    287049    |   301178   
       14  | 66:55.54 |  2:55.18 |    301179    |   314321   
       15  | 69:50.72 |  4:22.62 |    314322    |   334033   


Range status and errors

Selected range

     Filename C:\Documents and Settings\SerenobraK\Escritorio\RIPs\DEVIN TOWNSEND [2019] [2CD] Empath (Ltd. Ed.)  [EAC-WV] by SerenobraK [MeTaLMaDNeSS.TeaM]\DEVIN TOWNSEND - Empath CD1.wav

     Peak level 99.4 %
     Extraction speed 7.3 X
     Range quality 99.9 %
     Test CRC 5527AE2B
     Copy CRC 5527AE2B
     Copy OK

No errors occurred

End of status report

==== Log checksum 3F147A7B06B5CDEC834CFC4BACB5AF508586455F86DE3DA0F90F06C5C4C5C8D4 ====


Exact Audio Copy V1.3 from 2. September 2016

EAC extraction logfile from 4. April 2019, 18:22

DEVIN TOWNSEND / Empath CD2

Used drive  : HL-DT-STDVDRAM GSA-4163B   Adapter: 1  ID: 0

Read mode               : Secure
Utilize accurate stream : Yes
Defeat audio cache      : Yes
Make use of C2 pointers : No

Read offset correction                      : 667
Overread into Lead-In and Lead-Out          : No
Fill up missing offset samples with silence : Yes
Delete leading and trailing silent blocks   : No
Null samples used in CRC calculations       : Yes
Used interface                              : Native Win32 interface for Win NT & 2000

Used output format              : User Defined Encoder
Selected bitrate                : 1024 kBit/s
Quality                         : High
Add ID3 tag                     : Yes
Command line compressor         : C:\Archivos de programa\Exact Audio Copy\wavpack.exe
Additional command line options : -h -m -d %source%


TOC of the extracted CD

     Track |   Start  |  Length  | Start sector | End sector
    ---------------------------------------------------------
        1  |  0:00.00 |  5:41.38 |         0    |    25612   
        2  |  5:41.38 |  5:29.16 |     25613    |    50303   
        3  | 11:10.54 |  3:54.31 |     50304    |    67884   
        4  | 15:05.10 |  5:11.74 |     67885    |    91283   
        5  | 20:17.09 |  4:07.62 |     91284    |   109870   
        6  | 24:24.71 |  4:15.60 |    109871    |   129055   
        7  | 28:40.56 |  5:38.23 |    129056    |   154428   
        8  | 34:19.04 |  3:25.08 |    154429    |   169811   
        9  | 37:44.12 |  5:41.56 |    169812    |   195442   
       10  | 43:25.68 |  6:15.60 |    195443    |   223627   


Range status and errors

Selected range

     Filename C:\Documents and Settings\SerenobraK\Escritorio\RIPs\DEVIN TOWNSEND [2019] [2CD] Empath (Ltd. Ed.)  [EAC-WV] by SerenobraK [MeTaLMaDNeSS.TeaM]\DEVIN TOWNSEND - Empath CD2.wav

     Peak level 99.4 %
     Extraction speed 7.0 X
     Range quality 99.9 %
     Test CRC A0F23E1C
     Copy CRC A0F23E1C
     Copy OK

No errors occurred

End of status report

==== Log checksum 7E5E1C4B9CCF1AF6EDD1F1771C0EBEDDBF15742FAF0FDA85507397FE16A3F744 ====



本人发布的资源,有密码的话都是:秒速赛车单双 www.zdqr0.cn
关于链接失效的说明(度盘好友分享的说明)
//www.zdqr0.cn/thread-117499-1-1.html     
紧急通告:115,快传等网盘取消了分享功能礼包码链接全部失效
//www.zdqr0.cn/thread-122759-1-1.html
您需要登录后才可以回帖 登录 | 注册

本版积分规则

快速回复 秒速赛车单双 返回列表
  • 王晓秋苦练内功 荣威把每做一台车都当成一场考试 2019-06-24
  • 月子中心怎么成了野蛮生长的“熊孩子” 2019-06-24
  • “男童在幼儿园噎食死亡”,信息渠道应当畅通无阻 2019-06-23
  • 长治职业技术学院“学习新思想千万师生同上一堂课活动”首场授课开讲 2019-06-23
  • 儿子变全能暖男 海清晒儿子手工包礼物爱意满满 2019-06-23
  • 子曰:“朽木不可雕也,粪土之墙不可圬也!于予与何诛?”[哈哈] 2019-06-23
  • 张涵予蓝盈莹主演《逆光》首曝角色海报 2019-06-22
  • 鲜琦:感恩父亲节,永远难忘父亲这首歌(4) 2019-06-22
  • 【坚决打赢脱贫攻坚战】“千企帮千村”共筑幸福路 2019-06-21
  • 人民观点:锻造专业精进的“金刚钻” 2019-06-20
  • 回复@看着就想笑:同时,市场不具有配置全局性长期性战略性资源的功能。 2019-06-20
  • 天津市侨商会完成换届选举工作 2019-06-19
  • 销量持续低迷 路虎即将停产揽胜极光双门轿跑版 2019-06-19
  • 秒变迷弟!吴建豪晒与甄子丹合影:偶像给我签名 2019-06-19
  • 2013环球企业领袖宁夏圆桌会议嘉宾云集 2019-06-19
  • 微信彩票双色球 3d试机号和开奖号对应 双色球开奖结果走势图 香港六合彩特码资料 福建36选7第11059期 香港2019年生肖表图片 足彩胜负彩 2019羽毛球世锦赛 排列3试机号 11选5技巧大全书籍 快速时时彩正规吗 赌场招聘类 500彩票网打不开 六肖中特码 210期3d试机号