最近看过此主题的会员

查看: 147|回复: 2
打印 上一主题 下一主题

[欧美] BACKLASH原抓:美后金自赏 Astronoid《Air》2016/FLAC/BD

[复制链接]
 成长值: 32820

1万

主题

2万

帖子

76万

积分

音乐掌门人

Rank: 20Rank: 20Rank: 20Rank: 20Rank: 20

积分
763815

名人勋章社区QQ达人分享勋章精华帖达人灌水勋章

跳转到指定楼层
1#
发表于 2019-5-18 19:59:57 | 只看该作者 |只看大图 回帖奖励 |倒序浏览 |阅读模式

注册会员,获得无损资源下载地址,享受高品质音乐。

您需要 登录 才可以下载或查看,没有帐号?注册

x


Astronoid
Country of origin:United States
Location:Groveland, Massachusetts
Status:Active
Formed in:2012
Genre:Post-Metal/Rock/Shoegaze
Lyrical themes:Outer space
Current label:Blood Music
Years active:2012-present
===============================


01. Incandescent (5:11)       
02. Up and Atom (6:17)       
03. Resin (6:30)       
04. Violence (2:21)       
05. Homesick (4:47)       
06. Tin Foil Hats (5:09)       
07. Air (6:09)       
08. Obsolete (6:11)       
09. Trail of Sulfur (7:26)


===============================




原抓:Tristania《Ashes》2005/WAV/BD
BACKLASH原抓:美后金自赏 Astronoid《Astronoid》2019/FLAC/BD

本人发布的资源,有密码的话都是:秒速赛车单双 www.zdqr0.cn
关于链接失效的说明(度盘好友分享的说明)
//www.zdqr0.cn/thread-117499-1-1.html     
紧急通告:115,快传等网盘取消了分享功能礼包码链接全部失效
//www.zdqr0.cn/thread-122759-1-1.html
 成长值: 32820

1万

主题

2万

帖子

76万

积分

音乐掌门人

Rank: 20Rank: 20Rank: 20Rank: 20Rank: 20

积分
763815

名人勋章社区QQ达人分享勋章精华帖达人灌水勋章

2#
发表于 2019-5-18 20:01:10 | 只看该作者






=================================

百度下载(最终的金属仓库)

游客,如果您要查看本帖隐藏内容请回复


本人发布的资源,有密码的话都是:秒速赛车单双 www.zdqr0.cn
关于链接失效的说明(度盘好友分享的说明)
//www.zdqr0.cn/thread-117499-1-1.html     
紧急通告:115,快传等网盘取消了分享功能礼包码链接全部失效
//www.zdqr0.cn/thread-122759-1-1.html
 成长值: 32820

1万

主题

2万

帖子

76万

积分

音乐掌门人

Rank: 20Rank: 20Rank: 20Rank: 20Rank: 20

积分
763815

名人勋章社区QQ达人分享勋章精华帖达人灌水勋章

3#
发表于 2019-5-18 20:01:45 | 只看该作者
Exact Audio Copy V1.3 from 2. September 2016

EAC extraction logfile from 1. April 2019, 20:49

Astronoid / Air

Used drive  : HL-DT-STDVDRAM GH24NSD1   Adapter: 1  ID: 0

Read mode               : Secure
Utilize accurate stream : Yes
Defeat audio cache      : Yes
Make use of C2 pointers : No

Read offset correction                      : 6
Overread into Lead-In and Lead-Out          : No
Fill up missing offset samples with silence : Yes
Delete leading and trailing silent blocks   : No
Null samples used in CRC calculations       : Yes
Used interface                              : Native Win32 interface for Win NT & 2000

Used output format              : User Defined Encoder
Selected bitrate                : 896 kBit/s
Quality                         : High
Add ID3 tag                     : No
Command line compressor         : C:\Program Files (x86)\Exact Audio Copy\Flac\flac.exe
Additional command line options : -6 -V %source%


TOC of the extracted CD

     Track |   Start  |  Length  | Start sector | End sector
    ---------------------------------------------------------
        1  |  0:00.00 |  5:11.03 |         0    |    23327   
        2  |  5:11.03 |  6:17.18 |     23328    |    51620   
        3  | 11:28.21 |  6:30.03 |     51621    |    80873   
        4  | 17:58.24 |  2:21.62 |     80874    |    91510   
        5  | 20:20.11 |  4:47.15 |     91511    |   113050   
        6  | 25:07.26 |  5:09.52 |    113051    |   136277   
        7  | 30:17.03 |  6:09.70 |    136278    |   164022   
        8  | 36:26.73 |  6:11.74 |    164023    |   191921   
        9  | 42:38.72 |  7:26.46 |    191922    |   225417   


Range status and errors

Selected range

     Filename C:\Users\User\Music\EAC\Astronoid - Air\Astronoid - Air.wav

     Peak level 99.7 %
     Extraction speed 1.7 X
     Range quality 99.9 %
     Test CRC 97863218
     Copy CRC 97863218
     Copy OK

No errors occurred


AccurateRip summary

Track  1  accurately ripped (confidence 5)  [0CE3FCC1]  (AR v2)
Track  2  accurately ripped (confidence 5)  [560BA71F]  (AR v2)
Track  3  accurately ripped (confidence 5)  [B81C0100]  (AR v2)
Track  4  accurately ripped (confidence 5)  [2E763FE2]  (AR v2)
Track  5  accurately ripped (confidence 5)  [02FACECD]  (AR v2)
Track  6  accurately ripped (confidence 5)  [CCE8078E]  (AR v2)
Track  7  accurately ripped (confidence 5)  [56B872F4]  (AR v2)
Track  8  accurately ripped (confidence 5)  [A50328EC]  (AR v2)
Track  9  accurately ripped (confidence 5)  [20CF5CB6]  (AR v2)

All tracks accurately ripped

End of status report

---- CUETools DB Plugin V2.1.6

[CTDB TOCID: 6gCBgutDEcg2lII3bQ9rwTw9hoI-] found
Submit result: 6gCBgutDEcg2lII3bQ9rwTw9hoI- has been confirmed
Track | CTDB Status
  1   | (22/22) Accurately ripped
  2   | (22/22) Accurately ripped
  3   | (22/22) Accurately ripped
  4   | (22/22) Accurately ripped
  5   | (22/22) Accurately ripped
  6   | (22/22) Accurately ripped
  7   | (22/22) Accurately ripped
  8   | (22/22) Accurately ripped
  9   | (22/22) Accurately ripped


==== Log checksum 91A595A036C825FF2D73D2C01D6ECB4A367F7582CC30BDA59B71C2EE46562BB5 ====



本人发布的资源,有密码的话都是:秒速赛车单双 www.zdqr0.cn
关于链接失效的说明(度盘好友分享的说明)
//www.zdqr0.cn/thread-117499-1-1.html     
紧急通告:115,快传等网盘取消了分享功能礼包码链接全部失效
//www.zdqr0.cn/thread-122759-1-1.html
您需要登录后才可以回帖 登录 | 注册

本版积分规则

快速回复 秒速赛车单双 返回列表
  • 人民观点:锻造专业精进的“金刚钻” 2019-06-20
  • 回复@看着就想笑:同时,市场不具有配置全局性长期性战略性资源的功能。 2019-06-20
  • 天津市侨商会完成换届选举工作 2019-06-19
  • 销量持续低迷 路虎即将停产揽胜极光双门轿跑版 2019-06-19
  • 秒变迷弟!吴建豪晒与甄子丹合影:偶像给我签名 2019-06-19
  • 2013环球企业领袖宁夏圆桌会议嘉宾云集 2019-06-19
  • 图解:第十九届中共中央组织结构图 2019-06-18
  • 帮助孩子成为优秀的人:如何训练孩子的联想思维 2019-06-18
  • 中南大学计划招生8450人 新增三个专业 2019-06-18
  • 单凭祝福的话和许愿的心不能够实现任何事情。 2019-06-18
  • 栗战书主持召开全国人大常委会大气污染防治法执法检查组第二次全体会议 2019-06-17
  • 为什么孩子特别不喜欢承认错误?是因为他们没意识到错了吗? 2019-06-17
  • 爱奇艺电视果4G亮相:新增4G模组 可插SIM卡使用 2019-06-17
  • 人民网非洲中心分社记者报道集 2019-06-16
  • 【高清组图】新疆巴里坤县:野生玫瑰竞相开放引客来 2019-06-16
  • 249| 735| 713| 763| 680| 48| 176| 66| 976| 263|