最近看过此主题的会员

查看: 216|回复: 1
打印 上一主题 下一主题

[华语] 原抓:酒鬼乐队《万丈深渊》2016/WAV_整轨/度盘

[复制链接]
 成长值: 2820

28

主题

155

帖子

1万

积分

VIP3

Rank: 6Rank: 6

积分
15839
跳转到指定楼层
1#
发表于 2019-3-30 21:18:58 | 只看该作者 |只看大图 回帖奖励 |倒序浏览 |阅读模式

注册会员,获得无损资源下载地址,享受高品质音乐。

您需要 登录 才可以下载或查看,没有帐号?注册

x
表演者: 酒鬼
流派: 摇滚
专辑类型: 专辑
介质: CD
发行时间: 2016-11-26
出版者: 中国科学文化音像出版社
唱片数: 1
条形码: 9787798648232










简介  · · · · · ·
  2015酒鬼加入北暴文化、金刚制作,并且参加了厂牌所有的演出。2016年与金刚制作合作,由录音师:王熠、摄影师:涂斐、制作人:王争伟 组成的团队,推出了酒鬼乐队全新专辑《万丈深渊》。专辑整体风格以GRUNGE为基准,加入了众多其他风格元素,形成了一种酒鬼特色的GRUNGE。
曲目  · · · · · ·
1. 罪
2. 万丈深渊
3. 玩弄
4. 我还是我自己
5. 挣扎
6. 改变
7. 忘记一切
8. 我爱你
9. 没了
10. 你没有资格说放弃

  1. Exact Audio Copy V1.3 from 2. September 2016

  2. EAC 抓取日志文件从30. 三月 2019, 8:33

  3. 酒鬼乐队 / 万丈深渊

  4. 使用驱动器  :Optiarc DVD RW AD-7730U   Adapter: 1  ID: 0

  5. 读取模式      : 可靠Secure
  6. 使用精确流     : 是
  7. 清空音频缓存    : 否
  8. 使用 C2 指示器 : 否

  9. 读取偏移校正:               : 6
  10. 读取 Lead-In 和 Lead-Out : 是
  11. 用静音填充抓取中丢失偏移的采样       : 是
  12. 去除首尾静音块               : 否
  13. 在CRC 计算中使用了空样本       : 是
  14. 已用接口                  : Win NT 及 2000 本地 Win32 接口

  15. 所用输出模式: : 内部 WAV 函数
  16. 样本格式    : 44.100 Hz; 16 Bit; 立体声


  17. 已抓取 CD 的 TOC

  18.      音轨 |    起始    |    长度    |  起始扇区  |  结束扇区  
  19.     --------------------------------------------
  20.       1 |  0:00.00 |  3:06.00 |      0 |  13949
  21.       2 |  3:06.00 |  5:42.00 |  13950 |  39599
  22.       3 |  8:48.00 |  3:22.00 |  39600 |  54749
  23.       4 | 12:10.00 |  3:52.00 |  54750 |  72149
  24.       5 | 16:02.00 |  4:42.00 |  72150 |  93299
  25.       6 | 20:44.00 |  4:18.00 |  93300 | 112649
  26.       7 | 25:02.00 |  4:22.42 | 112650 | 132341
  27.       8 | 29:24.42 |  4:26.00 | 132342 | 152291
  28.       9 | 33:50.42 |  2:54.00 | 152292 | 165341
  29.      10 | 36:44.42 |  4:30.00 | 165342 | 185591


  30. 范围状态及错误

  31. 已选择范围

  32.      文件名 G:\EAC\酒鬼乐队 - 万丈深渊\酒鬼乐队 - 万丈深渊.wav

  33.      可疑位置 0:41:14

  34.      峰值电平 97.7 %
  35.      抓取速度 2.6 X
  36.      范围质量 99.9 %
  37.      复制 CRC 436BA357
  38.      复制结束

  39. 出现错误


  40. AccurateRip 摘要

  41. 音轨  1  在数据库中不存在
  42. 音轨  2  在数据库中不存在
  43. 音轨  3  在数据库中不存在
  44. 音轨  4  在数据库中不存在
  45. 音轨  5  在数据库中不存在
  46. 音轨  6  在数据库中不存在
  47. 音轨  7  在数据库中不存在
  48. 音轨  8  在数据库中不存在
  49. 音轨  9  在数据库中不存在
  50. 音轨 10  在数据库中不存在

  51. 没有任何音轨在 AccurateRip 数据库中有记录

  52. 状态报告结尾

  53. ---- CUETools DB Plugin V2.1.6

  54. [CTDB TOCID: ybss.rjg2MpZ2exerQoDX.pVSWQ-] found
  55. Submit result: ybss.rjg2MpZ2exerQoDX.pVSWQ- has been submitted
  56. Track | CTDB Status
  57.   1   | (2/2) Accurately ripped
  58.   2   | (2/2) Accurately ripped
  59.   3   | (2/2) Accurately ripped
  60.   4   | (2/2) Accurately ripped
  61.   5   | (2/2) Accurately ripped
  62.   6   | (2/2) Accurately ripped
  63.   7   | (2/2) Accurately ripped
  64.   8   | (2/2) Accurately ripped
  65.   9   | (2/2) Accurately ripped
  66. 10   | (2/2) Differs in 978 samples @04:29:61-04:29:62
  67. If you are sure that your rip contains errors, you can use CUETools to repair it.
复制代码


游客,如果您要查看本帖隐藏内容请回复

IMG_20190329_235636.jpg (260.58 KB, 下载次数: 0)

IMG_20190329_235636.jpg

评分

参与人数 1CD +240 收起 理由
最终之战 + 240

查看全部评分





原抓:生命之饼《50000》2001/WAV_整轨/度盘
原抓:福禄乐队《钗娜》2017/WAV_整轨/度盘

28

主题

688

帖子

4万

积分

天王巨星

Rank: 7Rank: 7Rank: 7

积分
42491

社区QQ达人VIP勋章

2#
发表于 2019-3-31 21:48:35 | 只看该作者
懒鬼和酒鬼碰撞了,哈哈哈哈
您需要登录后才可以回帖 登录 | 注册

本版积分规则

快速回复 秒速赛车单双 返回列表
  • 【理上网来·喜迎十九大】这五年,全面从严治党交出靓丽“赶考”答卷 2019-04-18
  • 人民日报人民时评:个人信息,利用好更需保护好 2019-04-18
  • 攻击力垫底仍扎入恒大两刀 人和延续主场强势表现 2019-04-18
  • 为人民谋幸福 奋力走好新时代长征路 2019-04-17
  • 《法医秦明2》精彩开篇 看片会悬疑烧脑 2019-04-17
  • 十九大代表拉措:团结一心跟党走   2019-04-17
  • 长期步行的人,最终会这样!惊醒了无数人! 2019-04-16
  • 济南新规:自由职业者也可缴存住房公积金 2019-04-16
  • 高傲,名牌大学的人真的除了积累课本知识以外,确实啥也不懂!看:这些“高材生们”这些年来害怕艰难风险、不敢艰苦奋斗为人民,而去鼓吹资本主义现成的道路,称为胆小鬼不 2019-04-16
  • 新和县:12333为参保群众提供咨询便利 2019-04-15
  • 北京市北京荣祥月达综合店【在线咨询】 2019-04-15
  • 乌鲁木齐34个小区垃圾分类试点五年成效明显 居民准确分类垃圾分开收运 2019-04-15
  • 习近平为传统文化“代言” 2019-04-15
  • 交警不顾安危跳入车内  制服疯狂逃窜酒司机 2019-04-14
  • 西安市民大多未留心超市购物小票 小心纸片“出卖”你 2019-04-14
  • 186| 700| 676| 668| 666| 472| 682| 60| 837| 746|